Loading...
Simple Minds - Sons And Fascination 1981 (2012) Remastered Flac

Audio
(FLAC)

419.88 MB
440276763 Bytes

18

2


 Download Torrent


Quality-Lossless
Release-1981
Duration-01:04:05
File Size-436.4 MB
Genre-Pop
Cover Size-1400px

----------------------------------------------------------------------------------------------	
 Analyzed: Simple Minds - Sons And Fascination (Remastered 2012) /  Artist: Simple Minds
----------------------------------------------------------------------------------------------	
DR	Peak	RMS	Duration	Title [codec]	
----------------------------------------------------------------------------------------------	
 DR10	 -0.10 dB	 -11.92 dB	6:53	01 - In Trance As Mission 	 [flac]	
 DR10	 -0.10 dB	 -11.52 dB	4:29	02 - Sweat In Bullet 	 [flac]	
 DR9	 -0.10 dB	 -11.67 dB	4:49	03 - 70 Cities As Love Brings The Fall 	 [flac]	
 DR9	 -0.10 dB	 -10.46 dB	5:30	04 - Boys From Brazil 	 [flac]	
 DR11	 -0.10 dB	 -12.47 dB	5:03	05 - Love Song 	 [flac]	
 DR12	 -0.10 dB	 -13.68 dB	5:26	06 - This Earth That You Walk Upon 	 [flac]	
 DR11	 -0.10 dB	 -12.96 dB	5:21	07 - Sons And Fascination 	 [flac]	
 DR9	 -0.10 dB	 -11.58 dB	6:13	08 - Seeing Out The Angel 	 [flac]	
 DR10	 -0.70 dB	 -12.25 dB	7:23	09 - Sweat In Bullet (Extended Remix) (Bonus Track) 	 [flac]	
 DR11	 -0.40 dB	 -13.03 dB	7:26	10 - In Trance As Mission (Live 25-09-1981 Hammersmith Odeon, London)(Bonus Track) 	 [flac]	
 DR12	 -0.40 dB	 -13.66 dB	5:25	11 - This Earth That You Walk Upon (Instrumental) (Bonus Track) 	 [flac]	
----------------------------------------------------------------------------------------------	
 Number of files:    11
 Official DR value:  DR10
	
 Sampling rate: 		 44100 Hz
 Average bitrate: 		 907kbs 
 Bits per sample: 		 16 bit


© 2019 qtorrent.in
A free, fast, powerful and legal Magnet URI indexer. Disclaimer
Free Web Hosting