Loading...
The Big Bang Theory Season 12. revittony

Video
(TV shows)

3.43 GB
3685987569 Bytes

398

61


 Download Torrent

 https://www.imdb.com/title/tt0898266


 
Format : Matroska 
Format version : Version 4 
Overall bit rate : 1 096 kb/s 
Encoded date : UTC 2018-09-25 00:41:10 
Writing application : mkvmerge v8.8.0 ('Wind at my back') 64bit 
Writing library : libebml v1.3.3 + libmatroska v1.4.4 

Video 
ID : 1 
Format : AVC 
Format/Info : Advanced Video Codec 
Format profile : High@L3.1 
Format settings : CABAC / 5 Ref Frames 
Format settings, CABAC : Yes 
Format settings, Reference frames : 5 frames 
Codec ID : V_MPEG4/ISO/AVC 
Duration : 20 min 1 s 
Bit rate : 977 kb/s 
Width : 720 pixels 
Height : 404 pixels 
Display aspect ratio : 16:9 
Frame rate mode : Constant 
Frame rate : 23.976 (24000/1001) FPS 
Color space : YUV 
Chroma subsampling : 4:2:0 
Bit depth : 8 bits 
Scan type : Progressive 
Bits/(Pixel*Frame) : 0.140 
Stream size : 140 MiB (89%) 
Writing library : x264 core 155 r2901 7d0ff22 
Default : Yes 
Forced : No 
Color range : Limited 
Matrix coefficients : BT.709 

Audio 
ID : 2 
Format : AAC LC 
Format/Info : Advanced Audio Codec Low Complexity 
Codec ID : A_AAC-2 
Duration : 20 min 1 s 
Bit rate : 117 kb/s 
Channel(s) : 2 channels 
Channel layout : L R 
Sampling rate : 48.0 kHz 
Frame rate : 46.875 FPS (1024 SPF) 
Compression mode : Lossy 
Delay relative to video : 20 ms 
Stream size : 16.8 MiB (11%) 
Default : Yes 
Forced : No


© 2019 qtorrent.in
A free, fast, powerful and legal Magnet URI indexer. Disclaimer
Free Web Hosting