Loading...
Superfly 2018 HDCAM x264 [MW]

Video
(Movies)

1002.39 MB
1051079082 Bytes

1

0


 Download Torrent

 https://pichub.site/image/aBdD6 
https://pichub.site/image/aB7mt 
https://pichub.site/image/aBVs4 
https://pichub.site/image/aBkYp 
https://pichub.site/image/aBwzy

General
Format : Matroska
Format version : Version 4 / Version 2
File size : 1 002 MiB
Duration : 1 h 48 min
Overall bit rate : 1 295 kb/s

Video
ID : 1
Format : AVC
Format/Info : Advanced Video Codec
Format profile : High@L4.1
Format settings : CABAC / 4 Ref Frames
Format settings, CABAC : Yes
Format settings, RefFrames : 4 frames
Codec ID : V_MPEG4/ISO/AVC
Duration : 1 h 48 min
Bit rate : 1 100 kb/s
Width : 720 pixels
Height : 460 pixels
Display aspect ratio : 16:10
Frame rate mode : Constant
Frame rate : 29.970 (30000/1001) FPS
Color space : YUV
Chroma subsampling : 4:2:0
Bit depth : 8 bits
Scan type : Progressive
Bits/(Pixel*Frame) : 0.111
Stream size : 856 MiB (85%)
Writing library : x264 core 155 r2901 7d0ff22
Default : Yes
Forced : No

Audio
ID : 2
Format : AAC
Format/Info : Advanced Audio Codec
Format profile : LC
Codec ID : A_AAC-2
Duration : 1 h 48 min
Bit rate : 187 kb/s
Channel(s) : 2 channels
Channel positions : Front: L R
Sampling rate : 48.0 kHz
Frame rate : 46.875 FPS (1024 SPF)
Compression mode : Lossy
Stream size : 145 MiB (14%)
Language : English
Default : Yes
Forced : No


© 2019 qtorrent.in
A free, fast, powerful and legal Magnet URI indexer. Disclaimer
Free Web Hosting