Loading...
Superfly 2018 HDCAM x264 AAC [MW]

Video
(Movies)

823.77 MB
863780508 Bytes

1

0


 Download Torrent

 https://pichub.site/image/aDLPt 
https://pichub.site/image/aDphp 
https://pichub.site/image/aD2oy 
https://pichub.site/image/aD5Wb 
https://pichub.site/image/aD6V0

ormat                                   : Matroska
Format version                           : Version 4 / Version 2
File size                                : 824 MiB
Duration                                 : 1 h 51 min
Overall bit rate                         : 1 037 kb/s

Video
ID                                       : 1
Format                                   : AVC
Format/Info                              : Advanced Video Codec
Format profile                           : High@L4.1
Format settings                          : CABAC / 4 Ref Frames
Format settings, CABAC                   : Yes
Format settings, RefFrames               : 4 frames
Codec ID                                 : V_MPEG4/ISO/AVC
Duration                                 : 1 h 51 min
Bit rate                                 : 900 kb/s
Width                                    : 720 pixels
Height                                   : 372 pixels
Display aspect ratio                     : 1.935
Frame rate mode                          : Constant
Frame rate                               : 29.970 (30000/1001) FPS
Color space                              : YUV
Chroma subsampling                       : 4:2:0
Bit depth                                : 8 bits
Scan type                                : Progressive
Bits/(Pixel*Frame)                       : 0.112
Stream size                              : 720 MiB (87%)
Writing library                          : x264 core 155 r2901 7d0ff22
Default                                  : Yes
Forced                                   : No

Audio
ID                                       : 2
Format                                   : AAC
Format/Info                              : Advanced Audio Codec
Format profile                           : LC
Codec ID                                 : A_AAC-2
Duration                                 : 1 h 51 min
Bit rate                                 : 128 kb/s
Channel(s)                               : 2 channels
Channel positions                        : Front: L R
Sampling rate                            : 48.0 kHz
Frame rate                               : 46.875 FPS (1024 SPF)
Compression mode                         : Lossy
Stream size                              : 102 MiB (12%)
Default                                  : Yes
Forced                                   : No


© 2019 qtorrent.in
A free, fast, powerful and legal Magnet URI indexer. Disclaimer
Free Web Hosting