Loading...
A Quiet Place (2018) [BluRay] [x265] {HEVC}

Video
(Movies)

471.82 MB
494738044 Bytes

4

0


 Download Torrent

Source : A.Quiet.Place.2018.1080p.BluRay.x264-DRONES

General
Complete name                  : A Quiet Place (2018) [BluRay] [x265] {HEVC}A.Quiet.Place.2018.720p.BluRay.x265.HEVC-TVStation.In.mkv
Format                         : Matroska
Format version                 : Version 4 / Version 2
File size                      : 472 MiB
Duration                       : 1 h 30 min
Overall bit rate               : 731 kb/s
Movie name                     : TVStation.In | A Quiet Place (2018)
Encoded date                   : UTC 2018-06-30 07:54:39
Writing application            : mkvmerge v24.0.0 ('Beyond The Pale') 64-bit
Writing library                : libebml v1.3.6 + libmatroska v1.4.9

Video
ID                             : 1
Format                         : HEVC
Format/Info                    : High Efficiency Video Coding
Format profile                 : Main@L3.1@Main
Codec ID                       : V_MPEGH/ISO/HEVC
Duration                       : 1 h 30 min
Bit rate                       : 633 kb/s
Width                          : 1 280 pixels
Height                         : 534 pixels
Display aspect ratio           : 2.40:1
Frame rate mode                : Constant
Frame rate                     : 23.976 (24000/1001) FPS
Color space                    : YUV
Chroma subsampling             : 4:2:0
Bit depth                      : 8 bits
Bits/(Pixel*Frame)             : 0.039
Stream size                    : 409 MiB (87%)
Title                          : www.TVStation.in
Writing library                : x265 2.8+19-bcdc610cf5f0:[Windows][GCC 7.3.0][64 bit] 8bit+10bit
Default                        : Yes
Forced                         : No

Audio
ID                             : 2
Format                         : AAC
Format/Info                    : Advanced Audio Codec
Format profile                 : LC
Codec ID                       : A_AAC-2
Duration                       : 1 h 30 min
Bit rate                       : 96.0 kb/s
Channel(s)                     : 2 channels
Channel positions              : Front: L R
Sampling rate                  : 48.0 kHz
Frame rate                     : 46.875 FPS (1024 SPF)
Compression mode               : Lossy
Delay relative to video        : -42 ms
Stream size                    : 61.7 MiB (13%)
Title                          : Encoded by TVStation.In
Language                       : English
Default                        : Yes
Forced                         : No

Text
ID                             : 3
Format                         : UTF-8
Codec ID                       : S_TEXT/UTF8
Codec ID/Info                  : UTF-8 Plain Text
Duration                       : 1 h 14 min
Bit rate                       : 5 b/s
Count of elements              : 163
Stream size                    : 2.93 KiB (0%)
Language                       : English
Default                        : Yes
Forced                         : No


© 2019 qtorrent.in
A free, fast, powerful and legal Magnet URI indexer. Disclaimer
Free Web Hosting