Loading...
Blade.Runner.2049.2017.DK.SWESUB.1080p.WEB-DL.H264.AC3-Stiffy

Video
(HD - Movies)

5.65 GB
6065773548 Bytes

1

0


 Download Torrent

Blade.Runner.2049.2017.DK.SWESUB.1080p.WEB-DL.H264.AC3-Stiffy

 
http://www.imdb.com/title/tt1856101/
A young blade runner's discovery of a long-buried secret leads him to track down former blade runner Rick Deckard, who's been missing for thirty years. 



Mediainfo:

Format : Matroska
Format version : Version 4 / Version 2
File size : 5.65 GiB
Duration : 2h 43mn
Overall bit rate : 4 948 Kbps
Source : EVO
Encoded date : UTC 2017-12-31 15:01:09
Writing application : mkvmerge v18.0.0 ('Apricity') 64-bit
Writing library : libebml v1.3.5 + libmatroska v1.4.8

Video
ID : 3
Format : AVC
Format/Info : Advanced Video Codec
Format profile : High@L4
Format settings, CABAC : Yes
Format settings, ReFrames : 5 frames
Codec ID : V_MPEG4/ISO/AVC
Duration : 2h 43mn
Bit rate : 4 562 Kbps
Width : 1 920 pixels
Height : 796 pixels
Display aspect ratio : 2.40:1
Frame rate mode : Constant
Frame rate : 23.976 (23976/1000) fps
Color space : YUV
Chroma subsampling : 4:2:0
Bit depth : 8 bits
Scan type : Progressive
Bits/(Pixel*Frame) : 0.125
Stream size : 5.21 GiB (92%)
Language : English
Default : Yes
Forced : No
Color range : Limited
Color primaries : BT.709
Transfer characteristics : BT.709
Matrix coefficients : BT.709

Audio
ID : 2
Format : AC-3
Format/Info : Audio Coding 3
Mode extension : CM (complete main)
Format settings, Endianness : Big
Codec ID : A_AC3
Duration : 2h 43mn
Bit rate mode : Constant
Bit rate : 384 Kbps
Channel(s) : 6 channels
Channel positions : Front: L C R, Side: L R, LFE
Sampling rate : 48.0 KHz
Frame rate : 31.250 fps (1536 spf)
Compression mode : Lossy
Stream size : 449 MiB (8%)
Language : English
Default : Yes
Forced : No

Text #1
ID : 1
Format : UTF-8
Codec ID : S_TEXT/UTF8
Codec ID/Info : UTF-8 Plain Text
Duration : 2h 31mn
Bit rate : 26 bps
Count of elements : 1057
Stream size : 29.3 KiB (0%)
Language : Swedish
Default : Yes
Forced : No

Text #2
ID : 4
Format : UTF-8
Codec ID : S_TEXT/UTF8
Codec ID/Info : UTF-8 Plain Text
Duration : 2h 43mn
Bit rate : 25 bps
Count of elements : 919
Stream size : 30.0 KiB (0%)
Language : Danish
Default : No
Forced : No


© 2019 qtorrent.in
A free, fast, powerful and legal Magnet URI indexer. Disclaimer
Free Web Hosting