Loading...
Blade Runner 2049 2017 1080p WEBRip 6CH AAC x264 - EiE

Video
(HD - Movies)

2.5 GB
2683831365 Bytes

168

12


 Download Torrent

Blade Runner 2049 2017 1080p WEBRip 6CH AAC x264 - EiE
 
https://www.imdb.com/title/tt1856101/


Screenshots:
 
https://lensdump.com/i/7xmE0
 
https://lensdump.com/i/7x3cq
 
https://lensdump.com/i/7xsOD
 
https://lensdump.com/i/7xKgA


Video
ID                                       : 1
Format                                   : AVC
Format/Info                              : Advanced Video Codec
Format settings, CABAC                   : Yes
Format settings, ReFrames                : 4 frames
Codec ID                                 : avc1
Codec ID/Info                            : Advanced Video Coding
Duration                                 : 2h 43mn
Bit rate                                 : 1 939 Kbps
Maximum bit rate                         : 13.0 Mbps
Width                                    : 1 912 pixels
Height                                   : 792 pixels
Display aspect ratio                     : 2.40:1
Frame rate mode                          : Constant
Frame rate                               : 23.976 fps
Color space                              : YUV
Chroma subsampling                       : 4:2:0
Bit depth                                : 8 bits
Scan type                                : Progressive
Bits/(Pixel*Frame)                       : 0.053
Stream size                              : 2.21 GiB (89%)

Audio
ID                                       : 2
Format                                   : AAC
Format/Info                              : Advanced Audio Codec
Format profile                           : LC
Codec ID                                 : 40
Duration                                 : 2h 43mn
Bit rate mode                            : Variable
Bit rate                                 : 247 Kbps
Maximum bit rate                         : 322 Kbps
Channel(s)                               : 6 channels
Channel positions                        : Front: L C R, Side: L R, LFE
Sampling rate                            : 48.0 KHz
Compression mode                         : Lossy
Stream size                              : 288 MiB (11%)
Language                                 : English


© 2019 qtorrent.in
A free, fast, powerful and legal Magnet URI indexer. Disclaimer
Free Web Hosting