Loading...
Incredibles 2 2018 720p HDTC x264 [MW]

Video
(Movies)

1.16 GB
1240970342 Bytes

9

5


 Download Torrent

 
https://pichub.site/image/aA9MX 
https://pichub.site/image/aAHt8 
https://pichub.site/image/aAT2J 
https://pichub.site/image/aAFe5 
https://pichub.site/image/aAWkh

General
Format                                   : Matroska
Format version                           : Version 4 / Version 2
File size                                : 1.16 GiB
Duration                                 : 1 h 55 min
Overall bit rate                         : 1 437 kb/s

Video
ID                                       : 1
Format                                   : AVC
Format/Info                              : Advanced Video Codec
Format profile                           : High@L4.1
Format settings                          : CABAC / 4 Ref Frames
Format settings, CABAC                   : Yes
Format settings, RefFrames               : 4 frames
Codec ID                                 : V_MPEG4/ISO/AVC
Duration                                 : 1 h 55 min
Bit rate                                 : 1 300 kb/s
Width                                    : 1 280 pixels
Height                                   : 556 pixels
Display aspect ratio                     : 2.35:1
Frame rate mode                          : Constant
Frame rate                               : 23.976 (24000/1001) FPS
Color space                              : YUV
Chroma subsampling                       : 4:2:0
Bit depth                                : 8 bits
Scan type                                : Progressive
Bits/(Pixel*Frame)                       : 0.076
Stream size                              : 1.05 GiB (91%)
Writing library                          : x264 core 155 r2901 7d0ff22
Default                                  : Yes
Forced                                   : No

Audio
ID                                       : 2
Format                                   : AAC
Format/Info                              : Advanced Audio Codec
Format profile                           : LC
Codec ID                                 : A_AAC-2
Duration                                 : 1 h 55 min
Bit rate                                 : 128 kb/s
Channel(s)                               : 2 channels
Channel positions                        : Front: L R
Sampling rate                            : 48.0 kHz
Frame rate                               : 46.875 FPS (1024 SPF)
Compression mode                         : Lossy
Stream size                              : 105 MiB (9%)
Language                                 : English
Default                                  : Yes
Forced                                   : No


© 2019 qtorrent.in
A free, fast, powerful and legal Magnet URI indexer. Disclaimer
Free Web Hosting