Loading...
A Quiet Place (2018) [1080p] KK650 Regraded

Video
(HD - Movies)

2.04 GB
2192806288 Bytes

0

1


 Download Torrent

Blu-ray 1:   
http://extraimage.net/images/2018/07/15/1991e150b3fc87718476dde669511cab.jpg

Regraded 1:   
http://extraimage.net/images/2018/07/15/1ceb021e48281024b46e3aea13ead5f6.jpg

Blu-ray 2:   
http://extraimage.net/images/2018/07/15/a638eb3cfb072986065c3cfc0e14cd91.jpg

Regraded 2:   
http://extraimage.net/images/2018/07/15/989ecd854a07b47316d1b86823401bc9.jpg

Blu-ray 3:   
http://extraimage.net/images/2018/07/15/b3250d0f4f63bcbc2d7fd5defd90774c.jpg

Regraded 3:   
http://extraimage.net/images/2018/07/15/804cc6482eab60e6a52857ae8839f791.jpg

Blu-ray 4:   
http://extraimage.net/images/2018/07/15/2a35deadeb7d1e5b23899e6897ecf453.jpg

Regraded 4:   
http://extraimage.net/images/2018/07/15/84e672a67897f53dcdee7b567bbbb556.jpg

Video
ID                             : 1
Format                         : AVC
Format/Info                    : Advanced Video Codec
Format profile                 : [email protected]
Format settings, CABAC         : Yes
Format settings, RefFrames     : 4 frames
Codec ID                       : avc1
Codec ID/Info                  : Advanced Video Coding
Duration                       : 1 h 30 min
Bit rate mode                  : Variable
Bit rate                       : 2 991 kb/s
Maximum bit rate               : 10 000 kb/s
Width                          : 1 920 pixels
Height                         : 804 pixels
Display aspect ratio           : 2.40:1
Frame rate mode                : Constant
Frame rate                     : 23.976 (24000/1001) FPS
Standard                       : Component
Color space                    : YUV
Chroma subsampling             : 4:2:0
Bit depth                      : 8 bits
Scan type                      : Progressive
Bits/(Pixel*Frame)             : 0.081
Stream size                    : 1.89 GiB (93%)
Title                          : aqp+blackpanthercredits.264
Encoded date                   : UTC 2018-07-14 23:41:04
Tagged date                    : UTC 2018-07-14 23:41:46
Color range                    : Limited
Color primaries                : BT.709
Transfer characteristics       : BT.709
Matrix coefficients            : BT.709

Audio
ID                             : 2
Format                         : AAC
Format/Info                    : Advanced Audio Codec
Format profile                 : LC
Codec ID                       : 40
Duration                       : 1 h 30 min
Bit rate mode                  : Variable
Bit rate                       : 224 kb/s
Maximum bit rate               : 240 kb/s
Channel(s)                     : 2 channels
Channel(s)_Original            : 6 channels
Channel positions              : Front: L C R, Side: L R, LFE
Sampling rate                  : 48.0 kHz
Frame rate                     : 46.875 FPS (1024 SPF)
Compression mode               : Lossy
Stream size                    : 145 MiB (7%)
Title                          : aquietplace.aac
Encoded date                   : UTC 2018-07-14 23:41:41
Tagged date                    : UTC 2018-07-14 23:41:46


© 2019 qtorrent.in
A free, fast, powerful and legal Magnet URI indexer. Disclaimer
2.04 GiB (2192806288 Bytes)
Free Web Hosting